2014 A Long Way Down 2014 HDRip XviD MP3-RBG
3.546 vistas

  • Information
  • Trailer
A Long Way Down 2014 HDRip XviD MP3-RBG (2014)

Rating IMDb 6.5/10 - 2,793 votos

Original title A Long Way Down

Duration 96 min

Year

Release 05 Jun 2014

Origin UK, Germany

Languages English

Director

Script ,

Awards N/A

genre comedy,drama,HDRip

R Sinopsis de A Long Way Down 2014 HDRip XviD MP3-RBG (2014)

http://www.imdb.com/title/tt0458413/

Links: iMDB | Trailer

Info:
Format                                   : AVI
Format/Info                              : Audio Video Interleave
File size                                : 962 MiB
Duration                                 : 1h 35mn
Overall bit rate                         : 1 403 Kbps
Movie name                               : RARBG.COM – A.Long.Way.Down.2014.HDRip.XviD.MP3-RARBG
Writing library                          : VirtualDub build 35491/release
Comment                                  : RARBG.COM – A.Long.Way.Down.2014.HDRip.XviD.MP3-RARBG

Video
ID                                       : 0
Format                                   : MPEG-4 Visual
Format profile                           : Simple@L5
Format settings, BVOP                    : No
Format settings, QPel                    : No
Format settings, GMC                     : No warppoints
Format settings, Matrix                  : Default (H.263)
Codec ID                                 : XVID
Codec ID/Hint                            : XviD
Duration                                 : 1h 35mn
Bit rate                                 : 1 198 Kbps
Width                                    : 720 pixels
Height                                   : 304 pixels
Display aspect ratio                     : 2.35:1
Frame rate                               : 23.976 fps
Color space                              : YUV
Chroma subsampling                       : 4:2:0
Bit depth                                : 8 bits
Scan type                                : Progressive
Compression mode                         : Lossy
Bits/(Pixel*Frame)                       : 0.228
Stream size                              : 822 MiB (85%)
Writing library                          : Lavc55.61.100

Audio
ID                                       : 1
Format                                   : MPEG Audio
Format version                           : Version 1
Format profile                           : Layer 3
Mode                                     : Joint stereo
Mode extension                           : MS Stereo
Codec ID                                 : 55
Codec ID/Hint                            : MP3
Duration                                 : 1h 35mn
Bit rate mode                            : Constant
Bit rate                                 : 192 Kbps
Channel(s)                               : 2 channels
Sampling rate                            : 48.0 KHz
Compression mode                         : Lossy
Stream size                              : 132 MiB (14%)
Alignment                                : Aligned on interleaves
Interleave, duration                     : 24 ms (0.58 video frame)
Interleave, preload duration             : 504 ms








Deja un comentario

estadisticas