2016 Deadpool (2016) HDTS x264 READNFO – Exclusive
7.382 vistas

  • Information
  • Trailer
Deadpool (2016) HDTS x264 READNFO – Exclusive (2016)

Rating IMDb 8.9/10 - 10,132 votos

Original title Deadpool

Duration 108 min

Year

Release 12 Feb 2016

Origin USA, Canada

Languages English

Director

Script , , ,

Awards N/A

genre Action,adventure,comedy,New Movies,Telesync

Cast , ,

R Sinopsis de Deadpool (2016) HDTS x264 READNFO – Exclusive (2016)

VIDEO: Russian mDTS
AUDIO: THX FTP PREMIUM for perfect English LiNE Audio 🙂

READNFO:
Post credits for the movie is missing. Added as seperate video clip with this torrent. Cant mess with good russian video, so we kept is seperate.

Format : Matroska
Format version : Version 4 / Version 2
File size : 1.39 GiB
Duration : 1h 36mn
Overall bit rate : 2 068 Kbps
Encoded date : UTC 2016-02-15 16:22:34
Writing application : mkvmerge v8.8.0 (‘Wind at my back’) 32bit
Writing library : libebml v1.3.3 + libmatroska v1.4.4

Video
ID : 1
Format : MPEG-4 Visual
Format profile : Simple@L3
Format settings, BVOP : No
Format settings, QPel : No
Format settings, GMC : No warppoints
Format settings, Matrix : Default (H.263)
Codec ID : V_MS/VFW/FOURCC / XVID
Codec ID/Hint : XviD
Duration : 1h 36mn
Bit rate : 1 835 Kbps
Width : 720 pixels
Height : 404 pixels
Display aspect ratio : 16:9
Frame rate mode : Constant
Frame rate : 23.962 fps
Original frame rate : 23.000 fps
Color space : YUV
Chroma subsampling : 4:2:0
Bit depth : 8 bits
Scan type : Progressive
Compression mode : Lossy
Bits/(Pixel*Frame) : 0.263
Stream size : 1.24 GiB (89%)
Writing library : XviD 1.2.1 (UTC 2008-12-04)
Default : Yes
Forced : No

Audio
ID : 2
Format : AC-3
Format/Info : Audio Coding 3
Mode extension : CM (complete main)
Format settings, Endianness : Big
Codec ID : A_AC3
Duration : 1h 36mn
Bit rate mode : Constant
Bit rate : 192 Kbps
Channel(s) : 2 channels
Channel positions : Front: L R
Sampling rate : 48.0 KHz
Bit depth : 16 bits
Compression mode : Lossy
Stream size : 132 MiB (9%)
Default : Yes
Forced : No

Screens:
image






Configure TagCopy to clipboard estadisticas