2014 Godzilla 2014 TC HC XviD MP3-RBG
5.923 vistas

  • Information
  • Trailer
Godzilla 2014 TC HC XviD MP3-RBG (2014)

Rating IMDb 7.2/10 - 115,317 votos

Original title Godzilla

Duration 123 min

Year

Release 16 May 2014

Origin USA, Japan

Languages English, Japanese

Director

Script ,

Awards 3 wins & 6 nominations.

genre Action,Telesync

PG-13 Sinopsis de Godzilla 2014 TC HC XviD MP3-RBG (2014)

Plot:
In 1999| the Janjira nuclear plant was mysteriously destroyed with most hands lost including supervisor Joe Brody’s colleague and wife| Sandra. Years later| Joe’s
son| Ford| a US Navy ordnance disposal officer| must go to Japan to help his estranged father who obsessively searches for the truth of the incident. In doing so|
father and son discover the disaster’s secret cause on the wreck’s very grounds. This enables them to witness the reawakening of a terrible threat to all of
Humanity| which is made all the worse with a second secret revival elsewhere. Against this cataclysm| the only hope for the world may be Godzilla| but the challenge
for the King of the Monsters will be great even as Humanity struggles to understand the destructive ally they have.

http://imdb.com/title/tt0831387/

Format                                   : AVI
Format/Info                              : Audio Video Interleave
Format profile                           : OpenDML
File size                                : 2.20 GiB
Duration                                 : 1h 56mn
Overall bit rate                         : 2 709 Kbps
Writing library                          : VirtualDub build 35491/release

Video
ID                                       : 0
Format                                   : MPEG-4 Visual
Format profile                           : Simple@L5
Format settings, BVOP                    : No
Format settings, QPel                    : No
Format settings, GMC                     : No warppoints
Format settings, Matrix                  : Default (H.263)
Codec ID                                 : XVID
Codec ID/Hint                            : XviD
Duration                                 : 1h 56mn
Bit rate                                 : 2 500 Kbps
Width                                    : 1 280 pixels
Height                                   : 544 pixels
Display aspect ratio                     : 2.35:1
Frame rate                               : 25.000 fps
Color space                              : YUV
Chroma subsampling                       : 4:2:0
Bit depth                                : 8 bits
Scan type                                : Progressive
Compression mode                         : Lossy
Bits/(Pixel*Frame)                       : 0.144
Stream size                              : 2.03 GiB (92%)
Writing library                          : Lavc55.61.100

Audio
ID                                       : 1
Format                                   : MPEG Audio
Format version                           : Version 1
Format profile                           : Layer 3
Mode                                     : Joint stereo
Mode extension                           : MS Stereo
Codec ID                                 : 55
Codec ID/Hint                            : MP3
Duration                                 : 1h 56mn
Bit rate mode                            : Constant
Bit rate                                 : 192 Kbps
Channel(s)                               : 2 channels
Sampling rate                            : 48.0 KHz
Compression mode                         : Lossy
Stream size                              : 160 MiB (7%)
Alignment                                : Aligned on interleaves
Interleave, duration                     : 24 ms (0.60 video frame)
Interleave, preload duration             : 504 ms
Writing library                          : LAME3.99.5

Notes:
Notes : Blurred the logo, Hardcoded subs, Light scenes are too sharped , Black scenes are too dark,  but thats all youre going to get for now
Greetz to everyone

 











 






estadisticas