2013 Louder Than Words.2013 WEB-DL XviD AC3-RBG
2.965 vistas

  • Information
  • Trailer
Louder Than Words.2013 WEB-DL XviD AC3-RBG (2013)

Rating IMDb 7.8/10 - 26 votos

Original title Louder Than Words

Duration 95 min

Year

Release 11 Oct 2013

Origin USA

Languages English

Director

Script

Awards N/A

genre drama,family,HDRip

PG-13 Sinopsis de Louder Than Words.2013 WEB-DL XviD AC3-RBG (2013)

After the unexpected death of their daughter, a couple work to build a state of the art children’s hospital where families are welcomed into the healing process.

 

http://imdb.com/title/tt1641401/

 

Format                                   : AVI
Format/Info                              : Audio Video Interleave
File size                                : 1.29 GiB
Duration                                 : 1h 33mn
Overall bit rate                         : 1 989 Kbps
Movie name                               : RARBG.COM – Louder.Than.Words.2013.WEB-DL.XviD.AC3-RARBG
Writing library                          : VirtualDub build 35491/release
Comment                                  : RARBG.COM – Louder.Than.Words.2013.WEB-DL.XviD.AC3-RARBG

Video
ID                                       : 0
Format                                   : MPEG-4 Visual
Format profile                           : Simple@L5
Format settings, BVOP                    : No
Format settings, QPel                    : No
Format settings, GMC                     : No warppoints
Format settings, Matrix                  : Default (H.263)
Codec ID                                 : XVID
Codec ID/Hint                            : XviD
Duration                                 : 1h 33mn
Bit rate                                 : 1 596 Kbps
Width                                    : 720 pixels
Height                                   : 300 pixels
Display aspect ratio                     : 2.40:1
Frame rate                               : 23.976 fps
Color space                              : YUV
Chroma subsampling                       : 4:2:0
Bit depth                                : 8 bits
Scan type                                : Progressive
Compression mode                         : Lossy
Bits/(Pixel*Frame)                       : 0.308
Stream size                              : 1.04 GiB (80%)
Writing library                          : Lavc55.61.100

Audio
ID                                       : 1
Format                                   : AC-3
Format/Info                              : Audio Coding 3
Mode extension                           : CM (complete main)
Format settings, Endianness              : Big
Codec ID                                 : 2000
Duration                                 : 1h 33mn
Bit rate mode                            : Constant
Bit rate                                 : 384 Kbps
Channel(s)                               : 6 channels
Channel positions                        : Front: L C R, Side: L R, LFE
Sampling rate                            : 48.0 KHz
Bit depth                                : 16 bits
Compression mode                         : Lossy
Stream size                              : 256 MiB (19%)
Alignment                                : Aligned on interleaves
Interleave, duration                     : 42 ms (1.00 video frame)
Interleave, preload duration             : 512 ms

Screens:










Deja un comentario

estadisticas