2016 Teenage Mutant Ninja Turtles Out of the Shadows CAM V.2 x264-P2P
2.617 vistas

  • Information
  • Trailer
Teenage Mutant Ninja Turtles Out of the Shadows CAM V.2 x264-P2P (2016)

Rating IMDb N/A/10 - N/A votos

Original title Teenage Mutant Ninja Turtles: Out of the Shadows

Duration 112 min

Year

Release 03 Jun 2016

Origin USA

Languages English

Director

Script , , ,

Awards N/A

genre Action,adventure,CAM,comedy,New Movies

Cast , ,

PG-13 Sinopsis de Teenage Mutant Ninja Turtles Out of the Shadows CAM V.2 x264-P2P (2016)

http://www.imdb.com/title/tt3949660/

As Shredder joins forces with mad scientist Baxter Stockman and henchmen Bebop and Rocksteady to take over the world, the Turtles must confront an even greater nemesis: the notorious Krang.

Director: Dave Green
Writers: Josh Appelbaum, André Nemec
Stars: Megan Fox, Will Arnett, Tyler Perry
Genres: Action | Adventure | Comedy | Fantasy | Sci-Fi
Country: USA
Language: English

Source: LATINO+TOPDog
Sample: included

Note: Full Movie and New Audio!

Format : Matroska
File size : 1.60 GiB
Duration : 1h 44mn
Overall bit rate : 2 198 Kbps

Video
ID : 1
Format : AVC
Format/Info : Advanced Video Codec
Format profile : High@L4.2
Format settings, CABAC : Yes
Format settings, ReFrames : 3 frames
Codec ID : V_MPEG4/ISO/AVC
Duration : 1h 44mn
Bit rate : 2 000 Kbps
Width : 720 pixels
Height : 336 pixels
Display aspect ratio : 2.143
Frame rate mode : Constant
Frame rate : 30.000 fps
Color space : YUV
Chroma subsampling : 4:2:0
Bit depth : 8 bits
Scan type : Progressive
Bits/(Pixel*Frame) : 0.276
Stream size : 1.46 GiB (91%)

Audio
ID : 2
Format : AAC
Format/Info : Advanced Audio Codec
Format profile : LC
Codec ID : A_AAC
Duration : 1h 44mn
Bit rate : 192 Kbps
Channel(s) : 2 channels
Channel positions : Front: L R
Sampling rate : 48.0 KHz
Frame rate : 46.875 fps (1024 spf)
Compression mode : Lossy
Stream size : 146 MiB (9%)
Default : Yes
Forced : No

528f3189c0d.png98b0131b263.png10f32629f62c.png






estadisticas