Registered users: 46537
Online: 1051
Mission Impossible 4 Ghost Protocol 2011 V2 CAM XViD NEW SOURCE DTRG
Mission Impossible 4 Ghost Protocol 2011 V2 CAM XViD NEW SOURCE DTRG
Rating: 10/10 Votes: 1


Size: 1.32 GB
Language: English
Downloaded: 2996 time(s)
Torrent NFO
Mission Impossible 4 Ghost Protocol 2011 V2 CAM XViD NEW SOURCE DTRG




The IMF is shut down when it's implicated in the bombing of the Kremlin, causing Ethan Hunt and his new team to go rogue to clear their organization's name.

General information

Format : AVI
Format/Info : Audio Video Interleave
File size : 1.32 GiB
Duration : 2h 6mn
Overall bit rate : 1 500 Kbps
Writing application : VirtualDubMod 1.5.10.2 (build 2540/release)
Writing library : VirtualDubMod build 2540/release

Video Information

ID : 0
Format : MPEG-4 Visual
Format profile : Advanced Simple@L5
Format settings, BVOP : 2
Format settings, QPel : No
Format settings, GMC : No warppoints
Format settings, Matrix : Default (H.263)
Muxing mode : Packed bitstream
Codec ID : XVID
Codec ID/Hint : XviD
Duration : 2h 6mn
Bit rate : 1 362 Kbps
Width : 720 pixels
Height : 292 pixels
Display aspect ratio : 2.466
Frame rate : 25.000 fps
Color space : YUV
Chroma subsampling : 4:2:0
Bit depth : 8 bits
Scan type : Progressive
Compression mode : Lossy
Bits/(Pixel*Frame) : 0.259
Stream size : 1.20 GiB (91%)
Writing library : XviD 64

Audio Information

ID : 1
Format : MPEG Audio
Format version : Version 1
Format profile : Layer 3
Mode : Joint stereo
Mode extension : MS Stereo
Codec ID : 55
Codec ID/Hint : MP3
Duration : 2h 6mn
Bit rate mode : Constant
Bit rate : 128 Kbps
Channel(s) : 2 channels
Sampling rate : 44.1 KHz
Compression mode : Lossy
Stream size : 116 MiB (9%)






Alignment : Split accross interleaves
Interleave, duration : 40 ms (1.00 video frame)
Interleave, preload duration : 500 ms