2014 Transformers Age of Extinction 2014 HC New Source HDTS XVID AC3 ACAB
9.136 vistas

  • Information
  • Trailer
Transformers Age of Extinction 2014 HC New Source HDTS XVID AC3 ACAB (2014)

Rating IMDb 6.3/10 - 57,371 votos

Original title Transformers: Age of Extinction

Duration 165 min

Year

Release 27 Jun 2014

Origin USA, China

Languages English

Director

Script

Awards 2 nominations.

genre Action,adventure,syfy,Telesync

PG-13 Sinopsis de Transformers Age of Extinction 2014 HC New Source HDTS XVID AC3 ACAB (2014)

A mechanic and his family join the Autobots as they are targeted by a bounty hunter from another world.

Format                                   : AVI
Format/Info                              : Audio Video Interleave
File size                                : 1.36 GiB
Duration                                 : 2h 36mn
Overall bit rate                         : 1 246 Kbps
Writing library                          : VirtualDub build 30091/release

Video
ID                                       : 0
Format                                   : MPEG-4 Visual
Format profile                           : Advanced Simple@L5
Format settings, BVOP                    : 2
Format settings, QPel                    : No
Format settings, GMC                     : No warppoints
Format settings, Matrix                  : Default (H.263)
Muxing mode                              : Packed bitstream
Codec ID                                 : XVID
Codec ID/Hint                            : XviD
Duration                                 : 2h 36mn
Bit rate                                 : 1 045 Kbps
Width                                    : 640 pixels
Height                                   : 272 pixels
Display aspect ratio                     : 2.35:1
Frame rate                               : 23.077 fps
Color space                              : YUV
Chroma subsampling                       : 4:2:0
Bit depth                                : 8 bits
Scan type                                : Progressive
Compression mode                         : Lossy
Bits/(Pixel*Frame)                       : 0.260
Stream size                              : 1.14 GiB (84%)
Writing library                          : XviD 65

Audio
ID                                       : 1
Format                                   : AC-3
Format/Info                              : Audio Coding 3
Mode extension                           : CM (complete main)
Format settings, Endianness              : Big
Codec ID                                 : 2000
Duration                                 : 2h 36mn
Bit rate mode                            : Constant
Bit rate                                 : 192 Kbps
Channel(s)                               : 2 channels
Channel positions                        : Front: L R
Sampling rate                            : 44.1 KHz
Bit depth                                : 16 bits
Compression mode                         : Lossy
Stream size                              : 215 MiB (15%)

Source---smy R6 subbed copy thx






Deja un comentario

estadisticas